Ultimo Destino – Last Resort.T.1[HDTV 720p][AC3 5.1 Castellano][1.3 GB][03/–]

Descargar Taringa 26/12/2012
Descargar
Unique ID : 325533738850929777783662348923152663340 (0xF4E7847E8F0D6FE22F092CE1D95C832C)

Complete name : Ultimo Destino – Temporada 1 [HDTV 720p][Cap.102][AC3 5.1 Español Castellano].mkv

Format : Matroska

Format version : Version 2

File size : 1.27 GiB

Duration : 41mn 4s

Overall bit rate mode : Variable

Overall bit rate : 4 423 Kbps

Encoded date : UTC 2012-12-10 23:45:29

Writing application : TMPGEnc Video Mastering Works 5 Version. 5.2.4.68

Writing library : TMPGEnc Video Mastering Works 5 Version. 5.2.4.68

Video
ID : 2
Format : AVC
Format/Info : Advanced Video Codec
Format profile : High@L4.0
Format settings, CABAC : Yes
Format settings, ReFrames : 2 frames
Codec ID : V_MPEG4/ISO/AVC
Duration : 41mn 4s
Bit rate mode : Variable
Bit rate : 3 887 Kbps
Maximum bit rate : 15.0 Mbps
Width : 1 280 pixels
Height : 720 pixels
Display aspect ratio : 16:9
Frame rate mode : Constant
Frame rate : 25.000 fps
Color space : YUV
Chroma subsampling : 4:2:0
Bit depth : 8 bits
Scan type : Interlaced
Scan order : Top Field First
Bits/(Pixel*Frame) : 0.169
Stream size : 1.12 GiB (88%)
Default : Yes
Forced : No

Audio
ID : 1
Format : AC-3
Format/Info : Audio Coding 3
Mode extension : CM (complete main)
Format settings, Endianness : Big
Codec ID : A_AC3
Duration : 41mn 4s
Bit rate mode : Constant
Bit rate : 448 Kbps
Channel(s) : 6 channels
Channel positions : Front: L C R, Side: L R, LFE
Sampling rate : 48.0 KHz
Bit depth : 16 bits
Compression mode : Lossy
Stream size : 132 MiB (10%)
Default : Yes
Forced : No

VN:F [1.9.22_1171]
Rating: 0.0/10 (0 votes cast)
VN:F [1.9.22_1171]
Rating: 0 (from 0 votes)

Llegaron buscando:

  • tmpgenc video mastering works 5 2 4 68 full español
  • tmpgenc video mastering works 5 2 4 68 full en español

0Deja tu comentario