Los Indestructibles 2 [BRRip][Latino][Accion][2012][1 Link]

Descargar Taringa 10/11/2012
Descargar

icon1 Los Indestructibles 2 [BRRip][Latino][Accion][2012][1 Link]Los Indestructibles 2 [BRRip][Latino][Accion][2012][1 Link]


Los Indestructibles 2 BRRip Los Indestructibles 2 [BRRip][Latino][Accion][2012][1 Link]

1401328322939 sipnosis Los Indestructibles 2 [BRRip][Latino][Accion][2012][1 Link]

Barney Ross (Sylvester Stallone), Lee Christmas (Jason Statham), Yin Yang (Jet Li), Gunner Jensen (Dolph Lundgren), Toll Road (Randy Couture) y Hale Caesar (Terry Crews) y Billy (Hemsworth), un nuevo colega, se vuelven a reunir cuando el señor Church (Bruce Willis) les encarga un trabajo aparentemente sencillo y muy lucrativo. Sin embargo, el plan se tuerce cuando un peligroso terrorista llamado Villain (Jean-Claude Van Damme) les tiende una emboscada. Entonces su único deseo será vengarse. Así es como van sembrando a su paso la destrucción y el caos entre sus enemigos hasta que se encuentran con una amenaza inesperada: cinco toneladas de plutonio apto para uso militar, una cantidad más que suficiente para cambiar el equilibrio de poder en el mundo.

8031328323015 ficha tecni Los Indestructibles 2 [BRRip][Latino][Accion][2012][1 Link]


Título Original: The Expendables 2
Otros Títulos: Los Mercenarios 2 (The Expendables 2) / Los Indestructibles 2
Año: 2012
Duración: 102 Min.
País: Usa
Director: Simon West
Guión: Richard Wenk, Sylvester Stallone (Historia: Ken Kaufman, David Agosto, Richard Wenk)
Música: Brian Tyler
Fotografía: Shelly Johnson
Reparto: Sylvester Stallone, Jason Statham, Dolph Lundgren, Terry Crews, Randy Couture, Yu Nan, Jean Claude Van Damme, Bruce Willis, Arnold Schwarzenegger, Chuck Norris, Jet Li, Liam Hemsworth, Scott Adkins, Charisma Carpenter, Amanda Ooms
Productora: Millennium Films / Nu Image Films
Género: Acción | Secuela

Datos Técnicos:
BRRip 720p | MKV | Resolución 1280×528 | AC3 5.1 | 1 GB | Español Latino | Acción | 2012

Informacion Tecnica:

Código:

General
Complete name                            : /LOSINDEUSTRIBLES.mkv
Format                                   : Matroska
Format version                           : Version 2
File size                                : 1.00 GiB
Duration                                 : 1h 42mn
Overall bit rate                         : 1 401 Kbps
Encoded date                             : UTC 2012-11-04 21:35:31
Writing application                      : mkvmerge v3.4.0 ('Rapunzel') built on May 15 2010 09:38:20
Writing library                          : libebml v0.8.0 + libmatroska v0.9.0

Video
ID                                       : 1
Format                                   : AVC
Format/Info                              : Advanced Video Codec
Format profile                           : High@L3.1
Format settings, CABAC                   : Yes
Format settings, ReFrames                : 4 frames
Codec ID                                 : V_MPEG4/ISO/AVC
Duration                                 : 1h 42mn
Bit rate                                 : 925 Kbps
Nominal bit rate                         : 994 Kbps
Width                                    : 1 280 pixels
Height                                   : 544 pixels
Display aspect ratio                     : 2.35:1
Frame rate                               : 23.976 fps
Original frame rate                      : 25.000 fps
Color space                              : YUV
Chroma subsampling                       : 4:2:0
Bit depth                                : 8 bits
Scan type                                : Progressive
Bits/(Pixel*Frame)                       : 0.055
Stream size                              : 677 MiB (66%)
Writing library                          : x264 core 98 r1649 20cbe10
Encoding settings                        : cabac=1 / ref=3 / deblock=1:0:0 / analyse=0x3:0x113 / me=hex / subme=7 / psy=1 / psy_rd=1.00:0.00 / mixed_ref=1 / me_range=16 / chroma_me=1 / trellis=1 / 8x8dct=1 / cqm=0 / deadzone=21,11 / fast_pskip=1 / chroma_qp_offset=-2 / threads=24 / sliced_threads=0 / nr=0 / decimate=1 / interlaced=0 / constrained_intra=0 / bframes=3 / b_pyramid=2 / b_adapt=1 / b_bias=0 / direct=1 / weightb=1 / weightp=2 / keyint=250 / keyint_min=25 / scenecut=40 / intra_refresh=0 / rc_lookahead=40 / rc=2pass / mbtree=1 / bitrate=994 / ratetol=1.0 / qcomp=0.60 / qpmin=10 / qpmax=51 / qpstep=4 / cplxblur=20.0 / qblur=0.5 / ip_ratio=1.40 / aq=1:1.00
Language                                 : Spanish

Audio
ID                                       : 2
Format                                   : AC-3
Format/Info                              : Audio Coding 3
Mode extension                           : CM (complete main)
Codec ID                                 : A_AC3
Duration                                 : 1h 42mn
Bit rate mode                            : Constant
Bit rate                                 : 448 Kbps
Channel(s)                               : 6 channels
Channel positions                        : Front: L C R, Side: L R, LFE
Sampling rate                            : 48.0 KHz
Bit depth                                : 16 bits
Compression mode                         : Lossy
Delay relative to video                  : 12ms
Stream size                              : 328 MiB (32%)
Language                                 : Spanish

Text
ID                                       : 3
Format                                   : UTF-8
Codec ID                                 : S_TEXT/UTF8
Codec ID/Info                            : UTF-8 Plain Text
Language                                 : Spanish

1441328323023 capturas Los Indestructibles 2 [BRRip][Latino][Accion][2012][1 Link]

I1fLOSINDEUST563 Los Indestructibles 2 [BRRip][Latino][Accion][2012][1 Link]

7861328322941 descarga Los Indestructibles 2 [BRRip][Latino][Accion][2012][1 Link]

106letitbit Los Indestructibles 2 [BRRip][Latino][Accion][2012][1 Link]

http://edpaste.info/view/2159b1c2

683freakshare Los Indestructibles 2 [BRRip][Latino][Accion][2012][1 Link]

VN:F [1.9.22_1171]
Rating: 0.0/10 (0 votes cast)
VN:F [1.9.22_1171]
Rating: 0 (from 0 votes)

0Deja tu comentario