El Código del Miedo (Safe)[720p][LATINO][Es-Esp]DTS[En-US][Sub][Yakuza & Mafia][2012]

Descargar Taringa 30/10/2012
Descargar

El Código del Miedo (Safe)[720p][LATINO][Es-Esp]DTS[En-US][Sub][Yakuza & Mafia][2012]
81ec95726847c23b1c337c42dfbab El Código del Miedo (Safe)[720p][LATINO][Es Esp]DTS[En US][Sub][Yakuza & Mafia][2012]

Ficha Técnica
TÍTULO ORIGINAL: Safe
OTROS TÍTULOS: El Código del Miedo
AÑO: 2012
DURACIÓN: 94 min.
PAÍS: USA
DIRECTOR: Boaz Yakin
GUIÓN: Boaz Yakin
MÚSICA: Mark Mothersbaugh
FOTOGRAFÍA: Stefan Czapsky
REPARTO: Jason Statham, Catherine Chan, Robert John Burke, James Hong, Anson Mount, Chris Sarandon, Sándor Técsy, Joseph Sikora, Igor Jijikine, Reggie Lee, James Colby, Matt O’Toole, Jack Gwaltney, Barry Bradford, Jay Giannone, Danni Lang, Lyman Chen
PRODUCTORA: Automatik Entertainment / Current Entertainment / IM Global
GÉNERO: Acción | Crimen. Yakuza & Triada. Mafia
FECHA DE ESTRENO USA: 16 Abril 2012
FECHA DE ESTRENO ESPAÑA: 4 Mayo 2012
FECHA DE ESTRENO PERÚ: 19 Julio 2012
FECHA DE ESTRENO MÉXICO: 3 Agosto 2012

Sinopsis
Mei, una niña china que vive en los bajos fondos de Nueva York, tiene una mente prodigiosa para las matemáticas. Las triadas chinas, la mafia rusa e incluso la policía de NY la persiguen porque en su memoria guarda un código secreto de alta importancia para todos ellos. El destino hace que se cruce con Luke (Jason Stattham), un ex agente de élite que ha tocado fondo y se ha convertido en un fracasado. Juntos trazarán un plan para librarse de los perseguidores de la niña.

Datos Técnicos

Código:

General
Complete name                    : C:CadagotoHD\Safe.CadagotoHD\Safe BDRip 720p Trial Audio  www.CadagotoHD.mkv
Format                           : Matroska
Format version                   : Version 2
File size                        : 5.96 GiB
Duration                         : 1h 34mn
Overall bit rate                 : 9 022 Kbps
Movie name                       : :::....CadagotoHD...::: Aportes Exclusivos
Encoded date                     : UTC 2012-10-29 22:19:17
Writing application              : mkvmerge v4.4.0 ('Die Wiederkehr') built on Oct 31 2010 21:52:48
Writing library                  : libebml v1.0.0 + libmatroska v1.0.0

Video
ID                               : 1
Format                           : AVC
Format/Info                      : Advanced Video Codec
Format profile                   : High@L4.1
Format settings, CABAC           : Yes
Format settings, ReFrames        : 11 frames
Muxing mode                      : Header stripping
Codec ID                         : V_MPEG4/ISO/AVC
Duration                         : 1h 34mn
Bit rate                         : 6 500 Kbps
Width                            : 1 280 pixels
Height                           : 546 pixels
Display aspect ratio             : 2.35:1
Frame rate                       : 23.976 fps
Color space                      : YUV
Chroma subsampling               : 4:2:0
Bit depth                        : 8 bits
Scan type                        : Progressive
Bits/(Pixel*Frame)               : 0.388
Stream size                      : 4.17 GiB (70%)
Title                            : :::...CadagotoHD....::: Aportes Exclusivos
Writing library                  : x264 core 125 r2208 d9d2288
Encoding settings                : cabac=1 / ref=11 / deblock=1:-3:-3 / analyse=0x3:0x113 / me=umh / subme=10 / psy=1 / psy_rd=1.10:0.02 / mixed_ref=1 / me_range=32 / chroma_me=1 / trellis=2 / 8x8dct=1 / cqm=0 / deadzone=21,11 / fast_pskip=0 / chroma_qp_offset=-3 / threads=18 / lookahead_threads=3 / sliced_threads=0 / nr=0 / decimate=0 / interlaced=0 / bluray_compat=0 / constrained_intra=0 / bframes=8 / b_pyramid=2 / b_adapt=2 / b_bias=0 / direct=3 / weightb=1 / open_gop=0 / weightp=2 / keyint=240 / keyint_min=24 / scenecut=40 / intra_refresh=0 / rc_lookahead=120 / rc=2pass / mbtree=1 / bitrate=6500 / ratetol=1.0 / qcomp=0.70 / qpmin=0 / qpmax=69 / qpstep=4 / cplxblur=20.0 / qblur=0.5 / ip_ratio=1.30 / aq=1:0.90
Language                         : English
Default                          : No
Forced                           : No

Audio #1
ID                               : 2
Format                           : AC-3
Format/Info                      : Audio Coding 3
Mode extension                   : CM (complete main)
Muxing mode                      : Header stripping
Codec ID                         : A_AC3
Duration                         : 1h 34mn
Bit rate mode                    : Constant
Bit rate                         : 640 Kbps
Channel(s)                       : 2 channels
Channel positions                : Front: L R
Sampling rate                    : 48.0 KHz
Bit depth                        : 16 bits
Compression mode                 : Lossy
Delay relative to video          : 20s 0ms
Stream size                      : 433 MiB (7%)
Title                            : :::....CadagotoHD....::: Español Latino AC3
Default                          : Yes
Forced                           : Yes

Audio #2
ID                               : 3
Format                           : AC-3
Format/Info                      : Audio Coding 3
Mode extension                   : CM (complete main)
Muxing mode                      : Header stripping
Codec ID                         : A_AC3
Duration                         : 1h 34mn
Bit rate mode                    : Constant
Bit rate                         : 384 Kbps
Channel(s)                       : 6 channels
Channel positions                : Front: L C R, Side: L R, LFE
Sampling rate                    : 48.0 KHz
Bit depth                        : 16 bits
Compression mode                 : Lossy
Delay relative to video          : 22s 300ms
Stream size                      : 260 MiB (4%)
Title                            : :::....CadagotoHD....:::Castellano AC3 5.1
Language                         : Spanish
Default                          : No
Forced                           : No

Audio #3
ID                               : 4
Format                           : DTS
Format/Info                      : Digital Theater Systems
Muxing mode                      : Header stripping
Codec ID                         : A_DTS
Duration                         : 1h 34mn
Bit rate mode                    : Constant
Bit rate                         : 1 510 Kbps
Channel(s)                       : 6 channels
Channel positions                : Front: L C R, Side: L R, LFE
Sampling rate                    : 48.0 KHz
Bit depth                        : 24 bits
Compression mode                 : Lossy
Delay relative to video          : 11ms
Stream size                      : 1 022 MiB (17%)
Title                            : :::....CadagotoHD....::: DTS Ingles
Language                         : English
Default                          : No
Forced                           : No

Text #1
ID                               : 5
Format                           : UTF-8
Codec ID                         : S_TEXT/UTF8
Codec ID/Info                    : UTF-8 Plain Text
Title                            : Español
Default                          : No
Forced                           : No

Text #2
ID                               : 6
Format                           : UTF-8
Codec ID                         : S_TEXT/UTF8
Codec ID/Info                    : UTF-8 Plain Text
Title                            : Ingles
Language                         : English
Default                          : No
Forced                           : No

Text #3
ID                               : 7
Format                           : UTF-8
Codec ID                         : S_TEXT/UTF8
Codec ID/Info                    : UTF-8 Plain Text
Default                          : Yes
Forced                           : Yes

Menu
00:00:00.000                     : en:00:00:00.000
00:04:42.282                     : en:00:04:42.282
00:06:50.327                     : en:00:06:50.327
00:09:57.889                     : en:00:09:57.889
00:14:03.718                     : en:00:14:03.718
00:17:52.613                     : en:00:17:52.613
00:20:48.289                     : en:00:20:48.289
00:24:09.990                     : en:00:24:09.990
00:29:30.977                     : en:00:29:30.977
00:35:33.548                     : en:00:35:33.548
00:40:11.868                     : en:00:40:11.868
00:44:33.838                     : en:00:44:33.838
00:47:28.679                     : en:00:47:28.679
00:53:31.458                     : en:00:53:31.458
00:56:21.336                     : en:00:56:21.336
01:00:05.143                     : en:01:00:05.143
01:02:59.401                     : en:01:02:59.401
01:08:03.621                     : en:01:08:03.621
01:11:55.311                     : en:01:11:55.311
01:15:32.820                     : en:01:15:32.820
01:17:50.541                     : en:01:17:50.541
01:20:56.101                     : en:01:20:56.101
01:24:25.185                     : en:01:24:25.185
01:27:11.268                     : en:01:27:11.268

b6e28a8db042dece788f733e5d2cd El Código del Miedo (Safe)[720p][LATINO][Es Esp]DTS[En US][Sub][Yakuza & Mafia][2012]

acbfc129e2721ec69d792c15d0aba El Código del Miedo (Safe)[720p][LATINO][Es Esp]DTS[En US][Sub][Yakuza & Mafia][2012]

7a69dd691c389eb10ae07963402a5 El Código del Miedo (Safe)[720p][LATINO][Es Esp]DTS[En US][Sub][Yakuza & Mafia][2012]

Links De 500 Mb!
(Abrir el link en tu Navegador, Eperar 8 Segundos Y Pulsar AQUI)
47cc8bef33435c6c321f606c11e06 El Código del Miedo (Safe)[720p][LATINO][Es Esp]DTS[En US][Sub][Yakuza & Mafia][2012]
(Luego tendrás opcion de descargar DLC O Cargar Enlaces con Jdowload Abierto)
¡Descargar AQUI!
Opcion 1
http://5a448d72.miniurls.co

Opcion2
http://ee9e1ece.tinylinks.co

Deseas Peliculas 720p – 1080p – 3D SBS – BluRay BD25 En Español Latino?
353af4414c4a58c68848412c4e1e0 El Código del Miedo (Safe)[720p][LATINO][Es Esp]DTS[En US][Sub][Yakuza & Mafia][2012]
¡Solo Tienes Que Seguirme … CadagotoHD Siempre Lo Mejor en HD De La Web!

VN:F [1.9.22_1171]
Rating: 0.0/10 (0 votes cast)
VN:F [1.9.22_1171]
Rating: 0 (from 0 votes)

Llegaron buscando:

  • el codigo del miedo
  • codigo del miedo
  • el codigo del miedo Online
  • Códigos de la Mafia
  • el codigo del miedo decargar

0Deja tu comentario