Breaking Bad T.2 [BDRip 720p] [DUAL] [3GB] [ MultiHost ] 1 Link

Descargar Taringa 09/12/2012
Descargar

star Breaking Bad T.2 [BDRip 720p] [DUAL] [3GB] [ MultiHost ] 1 LinkBreaking Bad T.2 [BDRip 720p] [DUAL] [3GB] [ MultiHost ] 1 Link

Breaking Bad | Temporada 2 | Capitulos [09/13]

breaking bad Breaking Bad T.2 [BDRip 720p] [DUAL] [3GB] [ MultiHost ] 1 Link

· · · · · · · · · · · · · · · : : | Ficha Técnica | : : · · · · · · · · · · · · · · ·

Título: Breaking Bad
Título Original: Breaking Bad
Año: 2008
País: USA
Duración: 40 min.
Género: Drama
Creador: Vince Gilligan
Productora: Gran Via Productions / High Bridge Productions / Sony Pictures Television

· · · · · · · · · · · · · · · : : | Reparto | : : · · · · · · · · · · · · · · ·

✭ Bryan Cranston | ✭ Aaron Paul | ✭ Anna Gunn | ✭ RJ Mitte | ✭ Dean Norris | ✭ Betsy Brandt | ✭ Giancarlo Esposito | ✭ Bob Odenkirk | ✭ Steven Michael Quezada | ✭ Krysten Ritter

· · · · · · · · · · · · · · · : : | Sinopsis | : : · · · · · · · · · · · · · · ·

Sinopsis: Breaking Bad se centra en Walter White (Bryan Cranston), un profesor de cincuenta años que enseña química en un instituto de Albuquerque (Nuevo México). Walter se convierte en criminal después de que le diagnostiquen un cáncer pulmonar y comienza a cocinar metanfetamina junto con su antiguo alumno Jesse Pinkman (Aaron Paul) con el fin de asegurar el futuro de su familia.

WebSite http://www.amctv.com/shows/breaking-bad
FilmAffinity http://www.filmaffinity.com/es/film489970.html
IMDB http://www.imdb.es/title/tt0903747/
YouTube http://www.youtube.com/v/-0gpBTMOh-k

Temporada: 2
Nº de Capitulos: 13
Rip: BDRip
Formato: 720p
Contenedor: MKV
Audio: Castellano e Inglés
Tamaño: 3GB
MediaInfo: ↓

Spoiler

General
Format : Matroska
Format version : Version 2
File size : 3.03 GiB
Duration : 47mn 21s
Overall bit rate : 9 148 Kbps

Video
ID : 1
Format : AVC
Format/Info : Advanced Video Codec
Format profile : High@L4.1
Format settings, CABAC : Yes
Format settings, ReFrames : 9 frames
Codec ID : V_MPEG4/ISO/AVC
Duration : 47mn 21s
Bit rate : 7 000 Kbps
Width : 1 280 pixels
Height : 720 pixels
Display aspect ratio : 16:9
Frame rate mode : Constant
Frame rate : 23.976 fps
Color space : YUV
Chroma subsampling : 4:2:0
Bit depth : 8 bits
Scan type : Progressive
Bits/(Pixel*Frame) : 0.317
Stream size : 2.26 GiB (75%)
Writing library : x264 core 98 r1649 20cbe10
Encoding settings : cabac=1 / ref=9 / deblock=1:-3:-3 / analyse=0×3:0×113 / me=tesa / subme=10 / psy=1 / psy_rd=1.00:0.00 / mixed_ref=1 / me_range=16 / chroma_me=1 / trellis=2 / 8x8dct=1 / cqm=0 / deadzone=21,11 / fast_pskip=0 / chroma_qp_offset=-2 / threads=12 / sliced_threads=0 / nr=0 / decimate=0 / interlaced=0 / constrained_intra=0 / bframes=7 / b_pyramid=2 / b_adapt=2 / b_bias=0 / direct=3 / weightb=1 / weightp=2 / keyint=250 / keyint_min=25 / scenecut=40 / intra_refresh=0 / rc=2pass / mbtree=0 / bitrate=7000 / ratetol=1.0 / qcomp=0.60 / qpmin=10 / qpmax=51 / qpstep=4 / cplxblur=20.0 / qblur=0.5 / ip_ratio=1.40 / pb_ratio=1.30 / aq=1:0.70
Language : Spanish
Default : Yes
Forced : Yes

Audio #1
ID : 2
Format : AC-3
Format/Info : Audio Coding 3
Mode extension : CM (complete main)
Format settings, Endianness : Big
Codec ID : A_AC3
Duration : 47mn 21s
Bit rate mode : Constant
Bit rate : 640 Kbps
Channel(s) : 6 channels
Channel positions : Front: L C R, Side: L R, LFE
Sampling rate : 48.0 KHz
Bit depth : 16 bits
Compression mode : Lossy
Stream size : 217 MiB (7%)
Language : Spanish
Default : Yes
Forced : Yes

Audio #2
ID : 3
Format : DTS
Format/Info : Digital Theater Systems
Codec ID : A_DTS
Duration : 47mn 21s
Bit rate mode : Constant
Bit rate : 1 510 Kbps
Channel(s) : 6 channels
Channel positions : Front: L C R, Side: L R, LFE
Sampling rate : 48.0 KHz
Bit depth : 24 bits
Compression mode : Lossy
Stream size : 511 MiB (17%)
Language : English
Default : No
Forced : No

Text #1
ID : 4
Format : UTF-8
Codec ID : S_TEXT/UTF8
Codec ID/Info : UTF-8 Plain Text
Language : Spanish
Default : Yes
Forced : Yes

Text #2
ID : 5
Format : UTF-8
Codec ID : S_TEXT/UTF8
Codec ID/Info : UTF-8 Plain Text
Language : Spanish
Default : No
Forced : No

Text #3
ID : 6
Format : UTF-8
Codec ID : S_TEXT/UTF8
Codec ID/Info : UTF-8 Plain Text
Language : English
Default : No
Forced : No

· · · · · · · · · · · · · · · : : | Servidores de Descarga | : : · · · · · · · · · · · · · · ·

· · : : | Uploaded | : : · ·

· · · · · · · · · · · · · · · : : | Otras Temporadas | : : · · · · · · · · · · · · · · ·

★ Temporada 1 en HD Aquí
★ Temporada 3 en HD Aquí
★ Temporada 4 en HD Aquí
★ Temporada 5 en HD Aquí

☆ Temporada 1 en SD Aquí
☆ Temporada 2 en SD Aquí
☆ Temporada 3 en SD Aquí
☆ Temporada 4 en SD Aquí
☆ Temporada 5 en SD Aquí

VN:F [1.9.22_1171]
Rating: 0.0/10 (0 votes cast)
VN:F [1.9.22_1171]
Rating: 0 (from 0 votes)

Llegaron buscando:

  • breaking bad 1 temporada 720p dual
  • breaking bad temporada 2 x 8 descargar 1 link
  • breaking bad temporada 2 itunes
  • breaking bad temporada 2 720p dual putlocker
  • breaking bad temporada 2 720p

0Deja tu comentario